&title=LANCE [DX]
&artist=Ras
&first=0
&des=
&wholebpm=156
&demo_seek=98.3
&demo_len=14.6
&des_5=サファ太
&lv_5=13+
&inote_5=(156.0){1},
{16}4/6-4[8:1],,,3h[16:11],,,,,,,,,,,4,3,
{16}5,,5,4,,4,6h[4:1],,,,5,,45,,,,
{16}5/3-5[8:1],,,6h[16:11],,,,,,,,,,,5,6,
{16}4,,4,5,,5,3h[4:1],,,,4,,5/2>5[4:1],,,,
{4}6,7-3[4:1],4,2-6[4:1],4,7<4[4:1],8,1h[4:3],
{16}4,,4,,4,,4,,4,2,5,3,6,4,7,5,
{16}8xh[8:1],,,8xh[8:1],,,17,,2-5b[8:1]/6-1b[8:1],,15,,,,,,
{16}4b/8b,,,,37,,2,1,,7,8,,6-1[8:1],5,7,,
{16}4x,,,,38,,6,5,,7,8,,2,1,3,8,
{16}4xh[4:1],,,,7,,6,5,,2,1,,7,8,6,,
{16}4b/8b,,,,3h[8:1]/4h[8:1],,,4h[8:1]/5h[8:1],,,56,,7,8,6,,
{16}1/2q6[8:1],,,,5x,,,7h[16:3],,,8,,2,1,3,,
{16}7p3[8:1],,5,,4x,,,2h[16:3],,,1,,7,8,6,,
{16}3q7[8:1],,5,,6x,,,8h[16:3],,,2,,46,,35,,
{16}1b/7b,,,,2h[8:1]/5h[8:1],,,3/4v7[8:1],,,1b,,1b,,,,
{16}4/6-3[8:1],,37,,46,,2,2h[16:3],,,1,3,8,4,7,5,
{16}6h[8:1],,8,7,1-5-7-4-8[2:1],,28,,1x/3x,,,,,,,,
{16}2-6[8:1],,1,,28,,7,7h[16:3],,,8,6,1,5,2,4,
{16}3v8[8:1],,,,38,,6,6h[16:3],,,5,7,,3,3,4,
{16}1>4[8:1],,28,,1,,6,6h[16:3],,,8,7,1,6,2,5,
{16}3h[8:1],,1,2,8-4-2-5-1[2:1],,17,,6x/8x,,,,,,,,
{16}7b,,,,1h[8:1]/2h[8:1],,,4h[8:1]/5h[8:1],,,78,,16,,3,4,
{16}2b,,6,5,8b,,3,4,1b,,28,,37,,,,
{16}3b/4b,,34,,5/2h[16:3],,,4,3,,3,,25,,,,
{16}17,,26,,5/3h[16:3],,,4,3,,3,,24,3,,3,
{16}5,,6,,4/6h[16:3],,,5,7,,7,,48,,,,
{16}38,,47,,6,5,,35,,2,2,4,3h[8:1],,6,5,
{16}7,,7,,1h[16:3]/B6/E6,,,4,2,,2,,15,,,,
{16}6,,6,,7h[16:3]/B4/E4,,,5,6,,6,,46,,4,5,
{16}3,,3,,2h[16:3]/B4/E5,,,1,3,,3,,2/4<7[8:1],,,,
{16}1bh[4:1],,,,8,2,,2,5,6,3,2,6,7,2,1,
{16}8-4[8:1],,17,,8b,,,3,3>8[8:1],,4,,35,,,,
{16}7/8-4[8:1],,1,,28,,,3,3,,24,,1,5,2,6,
{16}3-7[8:1],,4,,35,,,8,8>3[8:1],,7,,68,,,,
{16}3/4-8[8:1],,5,,34,,,,1b/7b,,6,5,,5,6,4,
{16}7-3[8:1],,28,,37,,,1,1-5[8:1],,28,,17,,,,
{16}6<1[8:1],,5,,46,,,2,2-6[8:1],,13,,28,,,,
{16}7/5-1[8:1],,6,,45,,,2,2-6[8:1]/8-4[8:1],,37,,28,,,,
{16}2b/8b,,,,1,1,1,1,2x/8x,2x/8x,2x/8x,2x/8x,3bxv8b[8:1]/7bxv4b[8:1],,,,
{1}3b/7-2-5<4[2:3],,
{8}6,5,4,3>8[8:3],,4,5,6,
{8}7,7h[4:1],,8,16,25,34,45,
{8}5/6h[1:1],,8,8,,2,3,4h[8:1],
{8},5h[8:1]/7h[8:1],,6h[8:1]/7h[8:1],,78,16,5/2h[8:5],
{8},E4,E3,E2,8x,8x-3-6-1[4:3],,B3,,B6,,E5,,2h[4:1],,1,
{8}3b/8b,,78,1/6>3-7>2[8:9],,B4,,B6,,B8,,B2,,3,3h[4:1],,
{8}Ch[8:5],,3,2,1,8-2>3[16:3],,8-6>5[16:3],
{8},8,1,2h[2:1],,3,1,8h[1:1],
{8},,E3,A4,E1,E6,,6h[4:1],
{8},4h[4:1],,2h[4:1],,8h[4:1],,3,
{8}4,5>7[8:3],6,7,,,5,6,
{8}7x/8x,1/6h[4:1],,,1w5[8:1],28,,,
{8}3,3,34,45,6,6,56,45,3,3,24,35,6,6,57,46,
{8}3,3,12,38,7,7,78,16,3,3,12,18,7,7,28,28,
{16}1,1,2,2,3,3,4,4,5,5,6,6,7,7,8,8,
{16}2,1,3,8,4,7,5,6,3,4,2,5,1,6,8,7,
{64}1,,,,,,,,2x/8xh[8:1],E3,B3,B4,E5,,,,,,,,,,,,7x/1xh[16:3],E7,B6,B5,E5,,,,,,,,,E2,B2,B3,E4,,,,,,,,A7,D7,A6,D6,A5,,,,A2,D3,A3,D4,A4,,,,
{16}8b,,,,4/8-4V62[8:3],37,26,15,48,,7,,1b,,,,
{8}7b/1b-3[8:1],,5/1-5[8:1],6,1/7-3-6[4:1],8,27,1,
{8}8v3[8:1],7<4[8:1],8,7,1-4b[8:1]*-6b[8:1],2,1,,
{8}7<5-1[4:1],8,7,3,2<8-4[4:1],4,2,6,
{8}7,7,28,37,4v1b[8:1]*v7[8:1],26,4x,,
{8}2b/6b-4[8:1],,3-7[8:1],3,8-2[8:1],8,2,3,
{8}6/4-8[8:1],5,2/4>3-1[8:1],3,6/4<5-7b[8:1],5,24,3,
{8}8b/4b-8[8:1],,6-3[8:1],5,1,1,24,6,
{8}24,7,3/5<8[8:1],8,1w5[8:1],2,1x,,
{8}3b/7b,,2-6V48[8:3],1,2,8,7-3V15[8:3],6,
{8}7,5,4,3,2>4b[8:1],6<8b[8:1],2-6[8:1],6,
{8}2bV48[4:1],,2/6x-3[8:1],7,6,1-7b[8:1],4,5/1-3b[8:1],
{8}6,15,4,15,6,67,1-7-5-3b[8:1]/8<3[8:1],23,
{8}1b/8b,,1,28,37,6/4V28[5:1],35,24,
{8},5V71[5:1],46,57,,4,5,6,
{16}57,,8,,24,,1,,6,6,5,7,3,3,4,2,
{16}6,5,7,4,8,1,7,2,4,3,7,5,4-8[8:1]/8-4[8:1],37,26,15,4b/8b,
